The Shape of Water (2017)
Blackmail (2018)
The Terror Season 01
Star Wars The Last Jedi (2017)
Star Wars Collection 1080p
MV5BMTczMDk5MTg5Ml5BMl5BanBnXkFtZTcwOTYyMjE5Mg@@._V1_SY1000_CR0,0,674,1000_AL_
Gehraiyaan (2017)
Jumanji Welcome to the Jungle (2017)
Mukkabaaz (2017)
Baaghi 2
B.A. Pass 2 (2017)
Padmaavat (2018) Poster
Hichaki (2018)
aKO5ypD
Marvel Cinematic Universe
justice-league-quad
ThorRagnarok
63082900

Missing 2018 Pre DVD Hindi Download | Watch Online

If You Found A Dead Link Please Report Below In Comment Box

Format                         : Matroska
Format version                 : Version 4 / Version 2
File size                      : 277 MiB
Duration                       : 1 h 47 min
Overall bit rate               : 359 kb/s
Movie name                     : Missing 2018 GOPISAHI

Video
Format                         : AVC
Codec ID                       : V_MPEG4/ISO/AVC
Duration                       : 1 h 47 min
Bit rate                       : 300 kb/s
Width                          : 622 pixels
Height                         : 272 pixels
Display aspect ratio           : 2.25:1
Frame rate mode                : Constant
Frame rate                     : 25.000 FPS
Color space                    : YUV
Chroma subsampling             : 4:2:0
Bit depth                      : 8 bits
Scan type                      : Progressive
Bits/(Pixel*Frame)             : 0.071
Stream size                    : 231 MiB (84%)
Title                          : GOPISAHI
Writing library                : x264 core 155 r2893 b00bcaf

Audio
Format                         : AAC
Duration                       : 1 h 47 min
Bit rate                       : 56.5 kb/s
Channel(s)                     : 2 channels
Channel positions              : Front: L R
Sampling rate                  : 44.1 kHz
Frame rate                     : 43.066 FPS (1024 SPF)
Compression mode               : Lossy
Stream size                    : 43.6 MiB (16%)
Title                          : GOPISAHI
Language                       : Hindi

TORRENT

http://www.linkshub.me/view/0CLOSXm8gF

d5a8a4764ccdf7baceefd6c36f450c93.jpg

Be the first to comment

Leave a Reply

Your email address will not be published.


*