Sampoorna Ramayana (1987-88)
Ant-Man and the Wasp (2018)
X-X-X UnCensored Season 01
Karenjit Kaur – The Untold Story of Sunny Leone Season 02
Batti Gul Meter Chalu (2018)
18+ Karenjit Kaur The Untold Story Of Sunny Leone (2018)
A Series of Unfortunate Events Season 01
McMafia Season 01 All 8 Episodes
Into The Badlands Season 01
Into the Badlands Season 02
The Nun (2018) Hindi Dubbed
Surya The Soldier (2018) Hindi Dubbed
Marlon Complete Season 02
Marlon Complete Season 01
b6268d706d37f3b09b81effb5dcf237a
Tom_Clancy_s_Jack_Ryan
f9f1ae68e5319577c8723165bc982856
The_Flash
Sacred Games Season 01
Vikings Season 01 hindi
Pacific Rim Uprising (2018)
Maaya Season 02
Lust Stories (2018)
Blackmail (2018)
game_of_thrones_hindi_poster_season_1_
Raid 2018
Jai, Lava and Kusa
Spyder (2017)
Gandii Baat S01
Mr. Robot S03
aKO5ypD
Marvel Cinematic Universe
justice-league-quad

Missing 2018 Pre DVD Hindi Download | Watch Online

If You Found A Dead Link Please Report Below In Comment Box

Format                         : Matroska
Format version                 : Version 4 / Version 2
File size                      : 277 MiB
Duration                       : 1 h 47 min
Overall bit rate               : 359 kb/s
Movie name                     : Missing 2018 GOPISAHI

Video
Format                         : AVC
Codec ID                       : V_MPEG4/ISO/AVC
Duration                       : 1 h 47 min
Bit rate                       : 300 kb/s
Width                          : 622 pixels
Height                         : 272 pixels
Display aspect ratio           : 2.25:1
Frame rate mode                : Constant
Frame rate                     : 25.000 FPS
Color space                    : YUV
Chroma subsampling             : 4:2:0
Bit depth                      : 8 bits
Scan type                      : Progressive
Bits/(Pixel*Frame)             : 0.071
Stream size                    : 231 MiB (84%)
Title                          : GOPISAHI
Writing library                : x264 core 155 r2893 b00bcaf

Audio
Format                         : AAC
Duration                       : 1 h 47 min
Bit rate                       : 56.5 kb/s
Channel(s)                     : 2 channels
Channel positions              : Front: L R
Sampling rate                  : 44.1 kHz
Frame rate                     : 43.066 FPS (1024 SPF)
Compression mode               : Lossy
Stream size                    : 43.6 MiB (16%)
Title                          : GOPISAHI
Language                       : Hindi

TORRENT

http://www.linkshub.me/view/0CLOSXm8gF

1eedd17b268d6e096578d87de05d49b6.gif

Loading…

Be the first to comment

Leave a Reply

Your email address will not be published.


*