soorma (2018) poster
Vodka Diaries (2018)
rampage-poster
Ready Player One (2018)
Pacific Rim Uprising (2018)
Sanju
Incredibles 2 (2018) poster
Race 3 (2018)
Maaya Season 02
Lust Stories (2018)
Blackmail (2018)
game_of_thrones_hindi_poster_season_1_
Raid 2018
Deadpool 2
Tomb Raider 2018 WEB-DL
The Purge Election Year (2016)
Red Sparrow (2018)
Insidious The Last Key [2018] BluRay 720p Hindi
Jai, Lava and Kusa
Spyder (2017)
Aiyaary 2018 HDTV
Gandii Baat S01
Bleeding Steel 2017 Hindi
Pari 2018
Mr. Robot S03
Avengers Infinity War (2018)
Maze-Runner-The-Death-Cure
Flash
Sonu Ke Titu Ki Sweety (2018)
Annabelle 2 Creation (2017)
The Terror Season 01
Star Wars Collection 1080p
Baaghi 2
Padmaavat (2018) Poster
aKO5ypD
Marvel Cinematic Universe
justice-league-quad
ThorRagnarok

Missing 2018 Pre DVD Hindi Download | Watch Online

If You Found A Dead Link Please Report Below In Comment Box

Format                         : Matroska
Format version                 : Version 4 / Version 2
File size                      : 277 MiB
Duration                       : 1 h 47 min
Overall bit rate               : 359 kb/s
Movie name                     : Missing 2018 GOPISAHI

Video
Format                         : AVC
Codec ID                       : V_MPEG4/ISO/AVC
Duration                       : 1 h 47 min
Bit rate                       : 300 kb/s
Width                          : 622 pixels
Height                         : 272 pixels
Display aspect ratio           : 2.25:1
Frame rate mode                : Constant
Frame rate                     : 25.000 FPS
Color space                    : YUV
Chroma subsampling             : 4:2:0
Bit depth                      : 8 bits
Scan type                      : Progressive
Bits/(Pixel*Frame)             : 0.071
Stream size                    : 231 MiB (84%)
Title                          : GOPISAHI
Writing library                : x264 core 155 r2893 b00bcaf

Audio
Format                         : AAC
Duration                       : 1 h 47 min
Bit rate                       : 56.5 kb/s
Channel(s)                     : 2 channels
Channel positions              : Front: L R
Sampling rate                  : 44.1 kHz
Frame rate                     : 43.066 FPS (1024 SPF)
Compression mode               : Lossy
Stream size                    : 43.6 MiB (16%)
Title                          : GOPISAHI
Language                       : Hindi

TORRENT

http://www.linkshub.me/view/0CLOSXm8gF

Be the first to comment

Leave a Reply

Your email address will not be published.


*